#TITLE:モダンローズ;
#SUBTITLE:- Demonbane Ending;
#ARTIST:いとうかなこ;
#TITLETRANSLIT:Modern Rose;
#SUBTITLETRANSLIT:;
#ARTISTTRANSLIT:Itou Kanako;
#CREDIT:Mellow;
#BANNER:banner.png;
#BACKGROUND:back.jpg;
#LYRICSPATH:demonbane ed.lrc;
#CDTITLE:CREDIT.png;
#MUSIC:demonbane ed.mp3;
#OFFSET:0.340;
#SAMPLESTART:47.980;
#SAMPLELENGTH:12.000;
#SELECTABLE:YES;
#BPMS:0.000=136.000,29.500=113.000,30.500=90.000,31.500=90.000;
#STOPS:30.000=0.270
,40.000=0.335
,40.500=0.335
,55.000=0.335
,55.500=0.335
,149.500=0.500
,150.250=0.500
;
#BGCHANGES:0.000=demonbane ed.avi=1.000=1=0=0,
155.000=back.jpg=1.000=0=0=1,
99999=-nosongbg-=1.000=0=0=0 // don't automatically add -songbackground-
;
// cache tags:
#FIRSTBEAT:1.000;
#LASTBEAT:155.000;
#SONGFILENAME:songs/Otaku's Dream 3rd Anime Mix/[errorrrr] Modern Rose - Demonbane ED/demonbane ed.sm;
#HASMUSIC:1;
#HASBANNER:1;
#MUSICLENGTH:99.744;
// end cache tags

//---------------dance-single - ----------------
#NOTES:
     dance-single:
     :
     Hard:
     5:
     0.352,0.350,0.211,0.672,0.015,158.000,21.000,67.000,0.000,1.000:
0000
1010
0100
0010
,
1000
0100
0001
0110
,
0010
1000
0001
0100
,
0010
1001
0100
0001
,
0010
0100
0001
1000
,
0001
0010
1000
0010
,
0100
1000
0010
0100
,
0022
0000
0000
0000
0033
0010
0001
0100
,
2002
0000
0000
0000
3003
0010
0100
0001
,
2020
0000
0000
0000
3030
0100
0001
0010
,
1100
0101
1000
0010
0100
0001
0020
0000
,
0000
0030
0000
0010
0100
1000
0202
0000
,
0000
0000
0303
0001
0010
0001
2020
0000
,
0000
0000
3030
0100
0010
0001
0110
1010
,
0200
0000
0310
0000
0001
2020
0000
0000
,
3030
0002
0000
1000
0100
1003
0010
0100
,
0001
0020
0000
1000
0230
0000
0000
0000
,
0301
0020
0000
0100
2030
0000
0010
3200
,
0000
0001
0310
0001
0010
2000
0000
0000
,
0100
3020
0000
0100
2000
0030
0000
0000
,
0100
0000
0000
3002
0000
0000
0000
0000
0010
0000
0000
0000
0200
0000
0000
0000
0000
0000
0003
0000
0000
0000
0000
0000
,
0310
2000
0000
0100
0020
0000
3100
0000
,
0230
0000
1000
0300
2020
0000
0000
0000
,
3030
0200
0000
0001
0320
0000
0001
0030
,
2200
0000
0000
3300
0020
0000
0100
1000
,
0230
0000
0000
0310
0002
0000
0020
0003
,
2030
0000
0000
3010
0100
0001
0010
0000
,
2020
3030
0002
0103
2020
0000
0000
3030
,
0100
0000
0000
0002
0000
0000
0000
0000
0100
0000
0000
0000
0023
0000
0000
0000
0000
0000
0000
0000
0000
0000
0000
0000
,
0130
0002
0100
0000
2003
0000
0010
3000
,
0020
0000
0200
0030
2000
0300
0000
0000
,
3000
0020
0000
1000
0100
0030
0002
0000
,
0200
0000
0003
0300
2000
0000
0010
3001
,
0200
0000
0000
0010
0302
0000
0100
0000
,
2003
0000
0000
0002
3000
0100
2000
0003
,
0100
3000
0022
0000
0000
0000
0000
0000
,
0000
0000
0033
0200
0000
0010
0302
0000
,
0203
0000
0000
0000
0300
0000
1010
0000
0000
0101
0000
0000
2020
0000
0000
0000
,
0000
0000
0000
3030
;

//---------------dance-single - Copied from----------------
#NOTES:
     dance-single:
     Copied from:
     Challenge:
     7:
     0.448,0.408,0.421,0.622,0.055,209.000,42.000,62.000,0.000,0.000:
0000
1010
0110
0011
,
1010
0110
1001
0110
,
0011
1010
0011
1100
,
0110
1001
0101
0011
,
1010
0110
0101
1010
,
0101
0110
1001
0011
,
1100
1010
0110
1100
,
0022
0000
0000
0000
0033
0010
0001
0100
,
2002
0000
0000
0000
3003
0010
0100
0001
,
2020
0000
0000
0000
3030
0100
0001
0010
,
1100
0101
1000
0010
0100
0001
0020
0000
,
0000
0030
0000
0010
0100
1000
0202
0000
,
0000
0303
1000
0100
0010
0001
2020
0000
,
0000
0000
3030
0100
0010
0001
0110
1010
,
0200
0000
0310
0000
0001
2020
0000
0000
,
3030
0002
0000
1000
0100
1003
0010
0100
,
0001
0020
0000
1000
0230
0010
0001
0010
,
0301
0020
0000
0100
2030
0100
3010
0200
,
0010
0001
0310
0001
0010
2000
0100
0010
,
3100
0020
0000
0130
2000
0100
0000
0000
,
0100
0000
0000
3002
0000
0000
0000
0000
0010
0000
0000
0000
0203
0000
0000
1000
0000
0000
0000
0000
0000
0001
0000
0000
,
0310
2000
0000
0100
3020
0100
0100
0000
,
0230
0000
1000
0300
2020
0000
0000
0000
,
3030
0200
0000
0001
0320
0001
0001
0030
,
2000
0100
0010
3100
0020
0000
0100
1000
,
0230
0000
0000
0310
0002
0100
0020
0003
,
2030
0000
0100
0000
0000
0000
3010
0000
0100
0000
0001
0000
0010
0000
0000
0100
,
1000
0100
0010
0000
0002
0000
0103
0000
2010
0000
0100
0000
0010
0000
3100
0000
,
0010
0000
0000
0002
0000
0000
1000
0000
0100
0000
0000
0000
0023
0000
0000
0000
0000
0000
1000
0000
0000
1000
0000
0000
,
0130
0002
0100
1000
2003
0000
0010
3000
,
0020
0000
0000
0000
0230
0000
0001
0000
2000
0000
0300
0000
0010
0000
0010
0100
,
3010
0100
0020
0000
0000
0000
1000
0000
0100
0000
1030
0000
0002
0000
0000
0000
,
0203
0010
0000
0310
2000
0000
0010
3001
,
0200
0010
0000
0310
0002
0000
0100
0010
,
2003
0000
0100
0000
0000
0000
0002
0000
3000
0000
0100
0000
2003
0000
3000
0010
,
1000
0010
1000
0000
0002
0000
0100
0100
0100
0000
0100
0000
0003
0000
0100
0000
,
0100
1000
0100
0000
0000
0000
0200
0000
0000
0000
0010
0000
0302
0000
0000
0000
,
0203
0000
0000
0000
0300
0000
1010
0000
0000
0101
0000
0000
2020
0000
0000
0000
,
0000
0000
0000
3030
;

//---------------dance-single - Copied from----------------
#NOTES:
     dance-single:
     Copied from:
     Medium:
     3:
     0.292,0.272,0.070,0.391,0.015,158.000,7.000,39.000,0.000,0.000:
0000
1000
0100
0010
,
1000
0100
0001
0100
,
0010
1000
0001
0100
,
0010
1000
0100
0001
,
0010
0100
0001
1000
,
0001
0010
1000
0010
,
0100
1000
0010
0100
,
0020
0000
0000
0000
0030
0100
0001
0100
,
2000
0000
0000
0000
3000
0010
0100
0001
,
0020
0000
0000
0000
0030
0100
0001
0010
,
1100
0101
1000
0010
0100
0001
0020
0000
,
0000
0030
0000
0010
0100
1000
0200
0000
,
0000
0000
0300
0001
0010
0001
2000
0000
,
0000
0000
3000
0100
0010
0001
0110
1010
,
0200
0000
0310
0000
0001
2000
0000
0000
,
3000
0001
0000
1000
0100
1000
0010
0100
,
0001
0010
0000
1000
0200
0000
0000
0000
,
0301
0010
0000
0100
2000
0000
0010
3100
,
0000
0001
0010
0001
0010
2000
0000
0000
,
0100
3010
0000
0100
2000
0000
0000
0000
,
0100
0000
0000
3001
0000
0000
0000
0000
0010
0000
0000
0000
0200
0000
0000
0000
0000
0000
0000
0000
0000
0000
0000
0000
,
0310
1000
0000
0100
0020
0000
0100
0000
,
1030
0100
0020
0000
,
0030
0200
0000
0001
0310
0000
0001
0000
,
2000
0000
0000
3000
0020
0000
0100
1000
,
0130
0000
0000
0010
0002
0000
0010
0003
,
2000
0000
0000
3010
0100
0001
0010
0000
,
2000
3000
0002
0103
0020
0000
0000
0030
,
0100
0000
0000
0002
0000
0000
0000
0000
0100
0000
0000
0000
0023
0000
0000
0000
0000
0000
0000
0000
0000
0000
0000
0000
,
0130
0001
0100
0000
2000
0000
0010
3000
,
0020
0030
0200
0300
2000
0000
0000
0000
,
3000
0020
0000
1000
0100
0030
0001
0000
,
0200
0000
0000
0300
1000
0000
0010
0001
,
0200
0000
0000
0010
0301
0000
0100
0000
,
2000
0000
0000
0001
3000
0100
2000
0000
,
0100
3000
0020
0000
0000
0000
0000
0000
,
0000
0000
0030
0200
0000
0010
0301
0000
,
0200
0000
0000
0000
0300
0000
1010
0000
0000
0101
0000
0000
2020
0000
0000
0000
,
0000
0000
0000
3030
;

//---------------dance-single - Copied from Copied f----------------
#NOTES:
     dance-single:
     Copied from Copied f:
     Easy:
     2:
     0.218,0.208,0.000,0.020,0.015,150.000,0.000,2.000,0.000,0.000:
0000
1000
0100
0010
,
1000
0100
0001
0100
,
0010
1000
0001
0100
,
0010
1000
0100
0001
,
0010
0100
0001
1000
,
0001
0010
1000
0010
,
0100
1000
0010
0100
,
0010
0000
0000
0000
0000
0100
0001
0100
,
1000
0000
0000
0000
0000
0010
0100
0001
,
0010
0000
0000
0000
0000
0100
0001
0010
,
0100
0001
1000
0010
0100
0001
0010
0000
,
0000
0000
0000
0010
0100
1000
0100
0000
,
0000
0000
0000
0001
0010
0001
1000
0000
,
0000
0000
0000
0100
0010
0001
0100
1000
,
0100
0000
0010
0000
0001
1000
0000
0000
,
0000
0001
0000
1000
0100
0000
0000
0000
,
0100
0010
0000
1000
0100
0000
0000
0000
,
0001
0010
0000
0100
1000
0000
0010
0200
,
0000
0000
0000
0000
0000
0300
0000
0000
,
0100
0010
0000
0100
1000
0000
0000
0000
,
0100
0000
0000
0001
0000
0000
0000
0000
0010
0000
0000
0000
0100
0000
0000
0000
0000
0000
0000
0000
0000
0000
0000
0000
,
0010
1000
0000
0100
0010
0000
0100
0000
,
1000
0100
0010
0000
,
0000
0100
0000
0001
0010
0000
0001
0000
,
1000
0000
0000
0000
0010
0000
0100
1000
,
0100
0000
0000
0010
0001
0000
0010
0000
,
1000
0000
0000
0010
0100
0001
0010
0000
,
1000
0000
0001
0100
0010
0000
0000
0000
,
0100
0000
0000
0001
0000
0000
0000
0000
0100
0000
0000
0000
0010
0000
0000
0000
0000
0000
0000
0000
0000
0000
0000
0000
,
0100
0001
0100
0000
1000
0000
0010
0000
,
0010
0100
1000
0000
,
0000
0010
0000
1000
0100
0000
0001
0000
,
0100
0000
0000
0000
1000
0000
0010
0001
,
0100
0000
0000
0010
0001
0000
0100
0000
,
1000
0000
0000
0001
0000
0100
1000
0000
,
0100
0020
0000
0000
,
0000
0030
0000
0100
0000
0010
0001
0000
,
0100
0000
0000
0000
0000
0000
0010
0000
0000
1000
0000
0000
0100
0000
0000
0000
;
